18+ Korean Back affair 2015

General
Complete name : Back affair (2015).mp4
Format : MPEG-4
Format profile : Base Media
Codec ID : isom (isom/iso2/avc1/mp41)
File size : 592 MiB
Duration : 1 h 0 min
Overall bit rate : 1 374 kb/s
Writing application : Lavf57.56.101
IsTruncated : Yes

Screenshots :

 
http://postimage.xyz/image/DgiW
 
http://postimage.xyz/image/Dxr4
 
http://postimage.xyz/image/DOFa
 
http://postimage.xyz/image/DSSn
 
http://postimage.xyz/image/D8yq


magnet-link

Video
ID : 1
Format : AVC
Format/Info : Advanced Video Codec
Format profile : [email protected]
Format settings, CABAC : Yes
Format settings, ReFrames : 4 frames
Codec ID : avc1
Codec ID/Info : Advanced Video Coding
Duration : 1 h 0 min
Bit rate : 1 280 kb/s
Width : 1 280 pixels
Height : 720 pixels
Display aspect ratio : 16:9
Frame rate mode : Constant
Frame rate : 29.970 (30000/1001) FPS
Color space : YUV
Chroma subsampling : 4:2:0
Bit depth : 8 bits
Scan type : Progressive
Bits/(Pixel*Frame) : 0.046
Stream size : 548 MiB (93%)
Writing library : x264 core 142 r2491 24e4fed
Color range : Limited
Color primaries : BT.709
Transfer characteristics : BT.709
Matrix coefficients : BT.709

Audio
ID : 2
Format : AAC
Format/Info : Advanced Audio Codec
Format profile : LC
Codec ID : 40
Duration : 1 h 0 min
Bit rate mode : Constant
Bit rate : 128 kb/s
Channel(s) : 2 channels
Channel positions : Front: L R
Sampling rate : 44.1 kHz
Frame rate : 43.066 FPS (1024 spf)
Compression mode : Lossy
Stream size : 55.1 MiB (9%)
Default : Yes
Alternate group : 1

magnet-link

Leave a Reply

Your email address will not be published. Required fields are marked *